[REL] Pessi ja Illusia (1984)

Rich
Posts: 2824
Likes:
Joined: Sat Feb 21, 2004 1:00 am

[REL] Pessi ja Illusia (1984)

Postby Rich » Tue Feb 01, 2005 3:17 pm  0 likes

Pessi ja Illusia (1984)

[Image]

A preteen boy and girl star in this Finnish fairy-tale!


http://cvmc.net/movie.jsp?movie_id=4402

thanks ;)
User avatar
rmt@36
Posts: 475
Likes:
Joined: Thu Jan 26, 2006 1:00 am

[REL] Pessi Ja Illusia (1984) Finland

Postby rmt@36 » Tue Jan 10, 2012 3:17 am  48 likes

Well, I have been working on this one for a while and it is still not right. I am hoping people will check this out and fix it if it needs it. I know it is large, I tried to make it smaller but no go so here it is enjoy

It has been a really long time since I have posted, due to time constraints, limited upload and download and life. This was one of the movies on my original top ten list, i got sick of waiting for it to pop up so I finally broke down and bought it from CVMC.

It is an interesting film, the girl is very cute and I believe the people here will enjoy this.

I will have a few more movies in the coming months, I just have to do some work on them and release them at the right time. when I have enough room to do so.


http://www.cvmc.net/movie.jsp?movie_id=4402

http://www.imdb.com/title/tt0087907/

Like this post to see ed2k links  [2.48 Gb]
User avatar
Phuzzy4242
Site Admin
Posts: 6797
Likes:
Joined: Sun Aug 23, 2009 1:00 am

Re: [REL] Pessi Ja Illusia (1984) Finland

Postby Phuzzy4242 » Tue Jan 10, 2012 5:25 am  0 likes

Thanks rmt.
plonkah
Posts: 371
Likes:
Joined: Fri Jun 27, 2008 1:00 am

Re: [REL] Pessi Ja Illusia (1984) Finland

Postby plonkah » Tue Jan 10, 2012 6:25 pm  0 likes

Cheers bro
User avatar
mimzy
Posts: 978
Likes:
Joined: Fri Aug 12, 2011 7:00 am

Re: [REL] Pessi ja Illusia (1984)

Postby mimzy » Fri Jan 13, 2012 12:40 pm  1 likes

Whoa :eyecrazy

Large size (not re-encoded, I hope?) is absolutely justified!

Thanks :bigups
User avatar
rmt@36
Posts: 475
Likes:
Joined: Thu Jan 26, 2006 1:00 am

Re: [REL] Pessi ja Illusia (1984)

Postby rmt@36 » Sat Jan 21, 2012 10:24 pm  0 likes

Large size yes, couldn't re-encode it, I hope it is enjoyable.

As I am running out of download/upload space I am having to stop until February.

Hopefully some people have it in full and can continue to share it.

In February I will endeavor to have another release for all if I can get things to work properly.

(Does anybody know if Auto GK works on windows 7?)

Cheers all
User avatar
starfish21
Posts: 3376
Likes:
Joined: Tue May 23, 2006 1:00 am

Re: [REL] Pessi ja Illusia (1984)

Postby starfish21 » Sun Mar 25, 2012 4:17 pm  52 likes

rmt@36's file recoded to a tastier size,not much lost in image quality.

original vob caps on left

[Image]

General
Complete name : Pessi Ja Illusia.avi
Format : AVI
Format/Info : Audio Video Interleave
Format profile : OpenDML
File size : 1.35 GiB
Duration : 1h 16mn
Overall bit rate : 2 533 Kbps
Writing application : Lavf51.12.1

Video
ID : 0
Format : AVC
Format/Info : Advanced Video Codec
Format profile : Baseline@L3.1
Format settings, CABAC : No
Format settings, ReFrames : 1 frame
Format settings, GOP : M=1, N=12
Codec ID : H264
Duration : 1h 16mn
Bit rate : 2 390 Kbps
Width : 704 pixels
Height : 528 pixels
Display aspect ratio : 4:3
Frame rate mode : Variable
Frame rate : 29.970 fps
Color space : YUV
Chroma subsampling : 4:2:0
Bit depth : 8 bits
Scan type : Progressive
Bits/(Pixel*Frame) : 0.215
Stream size : 1.27 GiB (94%)

Audio
ID : 1
Format : MPEG Audio
Format version : Version 1
Format profile : Layer 3
Mode : Joint stereo
Mode extension : MS Stereo
Codec ID : 55
Codec ID/Hint : MP3
Duration : 1h 16mn
Bit rate mode : Constant
Bit rate : 128 Kbps
Channel(s) : 2 channels
Sampling rate : 44.1 KHz
Compression mode : Lossy
Stream size : 69.8 MiB (5%)
Alignment : Aligned on interleaves
Interleave, duration : 26 ms (0.78 video frame)
Interleave, preload duration : 26 ms


[Image]

[Image]

[Image]

[Image]

[Image]

[Image]

[Image]

[Image]

[Image]

[Image]

[Image]

[Image]

[Image]

[Image]

[Image] [Image] [Image]

[Image] [Image] [Image]

[Image] [Image] [Image]

[Image] [Image] [Image]

[Image] [Image]

Like this post to see ed2k links  [1.35 Gb]
User avatar
rmt@36
Posts: 475
Likes:
Joined: Thu Jan 26, 2006 1:00 am

Re: [REL] Pessi ja Illusia (1984)

Postby rmt@36 » Mon Mar 26, 2012 2:57 am  0 likes

Good job

Thanks for this. I am glad someone has done this.

rmt
ferdi111
Posts: 432
Likes:
Joined: Sun Oct 21, 2012 7:10 pm

Re: [REL] Pessi ja Illusia (1984)

Postby ferdi111 » Tue Jul 22, 2014 2:37 pm  1 likes

That 1.35 GB file at uloz

Code: Select all

http://www.uloz.to/54848293/pessi-ja-illusia-avi
User avatar
ghost
Site Admin
Posts: 3671
Likes:
Joined: Sun Mar 07, 2004 1:00 am

Re: [REL] Pessi ja Illusia (1984)

Postby ghost » Thu Jun 09, 2016 11:55 pm  30 likes

Next update:

Welcome to the age of HD ;)

[Image]
[Image]

Like this post to see ed2k links  [1.77 Gb]

Notice: This version is only in german language.
Last edited by ghost on Fri Nov 18, 2016 9:52 am, edited 1 time in total.

Return to “Finland”

Who is online

Users browsing this forum: No registered users and 1 guest